[Для просмотра изображения необходимо включить JavaScript]

    Правила раздела.



    * Убедительная просьба: не усложняйте людям процесс скачивания, давая ссылки на файлообменники, имеющие ограничение по скорости и времени: rapidshare, depositfiles...
    * Запрещается размещать наши ссылки на других форумах и сайтах.
    * Замечания и просьбы со стороны правообладателей будут удовлетворены по мере их появления.


Начать новую тему Ответить на тему
 DjesForum : музыка и всякие полезности » МУЗЫКА НА ФОРУМЕ » Зарубежная популярная музыка » Зарубежная ретро-музыка (альбомы и сборники)


 
Старожил
Аватара пользователя
Не в сети

Зарегистрирован:
04 дек 2011, 09:21
Сообщения: 1491
До нового звания: 49.1%
Откуда: VKO
Страна: Kazakhstan [Казахстан] (kz)
Поблагодарили: 2859
Награды: 3

Сообщение номер:#1  СообщениеДобавлено: 14 мар 2019, 18:29

[Для просмотра изображения необходимо включить JavaScript]
Год выпуска диска: 2018
Жанр: Euro Disco
Альбом: 30 Years. The New Best Of
Аудио: mp3/VBR kbps
Архив: 109 mb


01.Flames Of Love
02.Slice Me Nice
03.Come Back And Break My Heart
04.We Can Move A Mountain
05.When Guardian Angels Cry
06.Magic Of Your Mind
07.Bolero
08.Cirque De La Lune
09.Everlasting Dance
10.Chinese Eyes
11.Deep In My Heart
12.Lady Of Ice
13.Promised Land
14.How Do You Feel Right Now?
15.When Fancy Is Crying
16.Running Man
17.Fools Cry
18.D.I.S.C.O. (Lust For Life)
19.Try My Love Again
20.Flames Of Love '98


Скрытое сообщение
Лучшая благодарность релизеру - Ваш комментарий!

Список получивших ссылку (12): goryha, Maphon, nurk, tehnogarik, Alinamer, Feliksovich_62, allexxx65, NAZGUL0099, vlad 67173, Kaghuna, ivan123, mramorit44



Вернуться к началу
 Профиль
 
Частый гость
Не в сети

Зарегистрирован:
17 ноя 2017, 15:59
Сообщения: 35
До нового звания: 50%
Страна: Russia [Россия] (ru)
Поблагодарили: 26

Сообщение номер:#2  СообщениеДобавлено: 15 мар 2019, 11:07

Отличный исполнитель! Спасибо! Вроде в восьмидесятых был такой, у мамы кассета есть.


Вернуться к началу
 Профиль
 
Старожил
Аватара пользователя
Не в сети

Зарегистрирован:
04 дек 2011, 09:21
Сообщения: 1491
До нового звания: 49.1%
Откуда: VKO
Страна: Kazakhstan [Казахстан] (kz)
Поблагодарили: 2859
Награды: 3

Сообщение номер:#3  СообщениеДобавлено: 20 мар 2019, 18:00

Цитата
писал(а) Alinamer
Отличный исполнитель! Спасибо! Вроде в восьмидесятых был такой, у мамы кассета есть.



Пожалуйста.


Вернуться к началу
 Профиль
 
Почётный житель форума
Аватара пользователя
Не в сети

Зарегистрирован:
05 сен 2009, 18:41
Сообщения: 2408
Откуда: Ibiza
Страна: Spain [Испания] (es)
Поблагодарили: 153
Награды: 2

Сообщение номер:#4  СообщениеДобавлено: 20 мар 2019, 18:09

Цитата
писал(а) Alinamer
Отличный исполнитель! Спасибо! Вроде в восьмидесятых был такой, у мамы кассета есть.

Fancy (Фэнси) (настоящее имя Манфред Алоис Зегит, нем. Manfred Alois Segieth, род. 7 июля 1946) - немецкий певец, исполняющий песни в стилях Italo-Disco и Eurodisco. Пик его популярности пришёлся на середину и конец 1980-х годов. :bIbIbI:

tt1072, спасибо за релиз, но вот такой вопрос...Это собранный потреково сборник? Почему спрашиваю...Качество записи желает лучшего...в коллекции запись первого альбома звучит во сто крат лучше...Ясно, если собирали потреково...если это качество записи на бутлеге, то такое ощущение, что записывали через микрофон с магнитофона...

_________________
...всё меньше мест хороших остаётся, где стол накрыт и денег не берут...


Вернуться к началу
 Профиль
 
Старожил
Аватара пользователя
Не в сети

Зарегистрирован:
04 дек 2011, 09:21
Сообщения: 1491
До нового звания: 49.1%
Откуда: VKO
Страна: Kazakhstan [Казахстан] (kz)
Поблагодарили: 2859
Награды: 3

Сообщение номер:#5  СообщениеДобавлено: 21 мар 2019, 15:02

Год выпуска диска: 2018
Жанр: Euro Disco
Альбом: 30 Years. The New Best Of
Аудио кодек: APE
Тип рипа: tracks
Битрейт аудио: lossless
Архив: 578 mb


01.Flames Of Love
02.Slice Me Nice
03.Come Back And Break My Heart
04.We Can Move A Mountain
05.When Guardian Angels Cry
06.Magic Of Your Mind
07.Bolero
08.Cirque De La Lune
09.Everlasting Dance
10.Chinese Eyes
11.Deep In My Heart
12.Lady Of Ice
13.Promised Land
14.How Do You Feel Right Now?
15.When Fancy Is Crying
16.Running Man
17.Fools Cry
18.D.I.S.C.O. (Lust For Life)
19.Try My Love Again
20.Flames Of Love '98

foobar2000 1.3 / Dynamic Range Meter 1.1.1
log date: 2019-03-21 16:26:52

--------------------------------------------------------------------------------
Analyzed: Fancy / 30 Years. The New Best Of Fancy
--------------------------------------------------------------------------------

DR Peak RMS Duration Track
--------------------------------------------------------------------------------
DR7 -0.37 dB -8.04 dB 3:30 01-Flames Of Love
DR8 -0.08 dB -9.71 dB 4:07 02-Slice Me Nice
DR7 -0.03 dB -7.93 dB 4:03 03-Come Back And Break My Heart
DR7 -0.08 dB -8.60 dB 3:50 04-We Can Move A Mountain
DR7 -0.08 dB -8.21 dB 3:58 05-When Guardian Angels Cry
DR8 -0.08 dB -9.86 dB 3:00 06-Magic Of Your Mind
DR7 -0.58 dB -7.99 dB 4:03 07-Bolero
DR7 -0.08 dB -8.75 dB 3:25 08-Cirque De La Lune
DR7 -0.08 dB -8.16 dB 4:04 09-Everlasting Dance
DR8 -0.08 dB -9.00 dB 3:52 10-Chinese Eyes
DR7 -0.07 dB -8.74 dB 2:54 11-Deep In My Heart
DR8 -0.06 dB -8.51 dB 4:03 12-Lady Of Ice
DR8 -0.02 dB -9.90 dB 3:55 13-Promised Land
DR7 -0.04 dB -8.81 dB 3:55 14-How Do You Feel Right Now?
DR8 -0.08 dB -9.18 dB 3:45 15-When Fancy Is Crying
DR7 -0.08 dB -8.40 dB 3:08 16-Running Man
DR8 -0.03 dB -8.43 dB 3:52 17-Fools Cry
DR7 -0.08 dB -8.56 dB 3:30 18-D.I.S.C.O. (Lust For Life)
DR7 -0.06 dB -8.91 dB 4:26 19-Try My Love Again
DR7 -0.08 dB -8.56 dB 3:44 20-Flames Of Love '98
--------------------------------------------------------------------------------

Number of tracks: 20
Official DR value: DR7

Samplerate: 44100 Hz
Channels: 2
Bits per sample: 16
Bitrate: 1028 kbps
Codec: Monkey's Audio
================================================================================


Скрытое сообщение
Лучшая благодарность релизеру - Ваш комментарий!


Вернуться к началу
 Профиль
   Похожие темы   Автор   Ответы   Просмотры   Последнее сообщение 
В этой теме нет новых непрочитанных сообщений. Fancy - Forever Magic (2009)

в форуме Зарубежная поп-музыка нашего века (альбомы)

dj_ivanich

5

615

20 мар 2019, 20:25

dj_ivanich : Re:Перейти к последнему сообщению

В этой теме нет новых непрочитанных сообщений. Для тех , кому за... Lossless

[ На страницу: 1, 2, 3, 4, 5 ]

в форуме Зарубежная ретро-музыка (альбомы и сборники)

Иваныч

102

7479

15 дек 2018, 08:41

Frici64 Перейти к последнему сообщению

В этой теме нет новых непрочитанных сообщений. VA - Classic Disney - 60 Years Of Musical Magic (5 CD) 128

в форуме Музыка для детей

Djesi

1

752

27 ноя 2017, 13:45

Halin Перейти к последнему сообщению

В этой теме нет новых непрочитанных сообщений. Fancy - Playa de Palma (Nonstop-Hit-Party) (2015)

в форуме Зарубежная поп-музыка нашего века (альбомы)

АлексейN

0

668

31 авг 2015, 16:42

АлексейN Перейти к последнему сообщению

В этой теме нет новых непрочитанных сообщений. Fancy - Super Hits Collection (2014)

в форуме Зарубежная поп-музыка нашего века (альбомы)

igor67

0

725

05 авг 2015, 22:04

igor67 Перейти к последнему сообщению

В этой теме нет новых непрочитанных сообщений. Fancy - Shock and Show(2014)

в форуме Зарубежная поп-музыка нашего века (альбомы)

tt1072

0

485

20 дек 2014, 20:22

tt1072 Перейти к последнему сообщению

В этой теме нет новых непрочитанных сообщений. Taste - Tickle Your Fancy (1976)

в форуме Зарубежный рок

igor67

0

306

19 ноя 2014, 21:38

igor67 Перейти к последнему сообщению

Начать новую тему Ответить на тему
 DjesForum : музыка и всякие полезности » МУЗЫКА НА ФОРУМЕ » Зарубежная популярная музыка » Зарубежная ретро-музыка (альбомы и сборники)

Найти:
Перейти:  

  # Fancy-30 Years. The New Best Of(2018)(mp3+lossless) Пред. тема | След. тема # 
 Страница 1 из 1 [ Сообщений: 5
 
Показать сообщения за: Поле сортировки
Вы не можете начинать темы
Вы не можете отвечать на сообщения
Вы не можете редактировать свои сообщения
Вы не можете удалять свои сообщения
Вы не можете добавлять вложения

  Версия для печати

 cron